綁定帳號登入

Android 台灣中文網

[電影] 今天的吉良同學 ([email protected]@720P/[email protected]日語@簡繁)

[複製連結] 查看: 1652|回覆: 2|好評: 0
yali2131 | 收聽TA | 顯示全部樓層 |閱讀模式
發表於 2017-9-10 03:55

馬上加入Android 台灣中文網,立即免費下載應用遊戲。

您需要 登錄 才可以下載或查看,沒有帳號?註冊

x
本帖最後由 yali2131 於 2017-9-16 02:07 編輯


                               
登錄/註冊後可看大圖


【影片名稱】:Closest Love to Heaven

【影片國家】:日本

【影片來源】:BluRay

【影片格式】:MKV

【檔案大小】:3.6G/4G/9G

【影片解析】:720P/1080P

【語言字幕】:日語@簡繁內封,囧夏字幕组&WiKi

【劇情簡介】:

──這365天,我會連眨眼都嫌可惜似的,一直注視著你──
肩膀上總是停著一隻鸚鵡的女高中生─岡村妮諾,和同班的吉良悠二是鄰居, 兩人卻從未交談,但當妮諾得知吉良的秘密後,兩人的命運就此展開……
登場人物及演員

吉良悠二 - 中川大志
岡村妮諾 - 飯豐萬理江
矢部和弘 - 葉山獎之
矢作澪 - 平祐奈
妮諾父親 - 安田顯
妮諾母親 - 三浦理惠子
吉良父親 - 岡田浩暉
英語老師 - 川上洋平([Alexandros]主唱。友情客串)



imdb:tt5874398

【影片截圖】:


                               
登錄/註冊後可看大圖



                               
登錄/註冊後可看大圖


【免責聲明】
1.本人呼籲會員們不要將本站資源用於盈利和/或非法目的。
2.本人亦不承擔會員將本站資源用於盈利和/或非法目的之任何後果和/或法律責任。
3.本圖像文件皆從網上搜集轉載,不承擔任何技術及版權問題。
4.下載鏈接僅供寬帶測試研究用途,請下載後在24小時內刪除,請勿用於商業目的。


【溫馨提醒】:較舊種子會有無人做種的可能性,下載前請由發帖日期/下載量判斷是否要下載
       若發現已死種的種子可經由帖子右下方舉報功能向版務舉報

【評分功能內的碎鑽、幫助、經驗及facebook讚等皆由系統支出,不會扣到本身所有,請以評分鼓勵發帖者】


本人µTorrent做種中,也請下載好的人多保種


由於一起掛著上傳速度會很慢,所以輪流掛種,預計每個種子掛3~7天


【種子】:



                               
登錄/註冊後可看大圖




1920x1036 x264-10bits 3.6G (應該是字幕組有在2壓過? 所以比較小)

[J.X&WiKi]Closest.Love.to.Heaven.2017.1080p.BluRay.x264.10bit.DTS.mkv.torrent (11.68 KB, 下載次數: 143)
「用Android 就來APK.TW」,快來加入粉絲吧!
Android 台灣中文網(APK.TW)

評分

參與人數 22碎鑽 +30 經驗 +2 幫助 +29 收起 理由
royjo + 1 + 1 非常讃
paintball123 + 1 + 1 很給力!(不過3G起跳…網路不給力啊…).
瘋狂小惡梨 + 1 + 1 非常讃
bcafe + 5 + 1 + 5 (ノ◕ヮ◕)ノ*:・゚✧ 主題用心,支持鼓勵.
sheila_utk + 1 + 1 非常讃
kk543 + 1 + 1 很給力!
ekb54321 + 1 + 1 非常讃
cmunw + 1 + 1 非常讃
nickchau2002 + 1 + 1 非常讃
taiwan0731 + 1 非常讃

查看全部評分

用Android 就來Android 台灣中文網(https://apk.tw)
回覆

使用道具 舉報

jay556611 | 收聽TA | 顯示全部樓層
發表於 2017-9-10 22:35
感謝大大的分享
又是一部好片




您好!您暫時不能瀏覽帖子的全部內容,請 登錄 | 沒有帳號? 註冊
用Android 就來Android 台灣中文網(https://apk.tw)
回覆 支持 反對

使用道具 舉報

 樓主| yali2131 | 收聽TA | 顯示全部樓層
發表於 2017-9-11 15:26
本帖最後由 yali2131 於 2017-9-11 17:31 編輯

新增2顆種子





影片參數

  1. General
  2. Unique ID                      : 194555838546908077857558931676504694384 (0x925E176E982760A8B420AFAEAFAA9E70)
  3. Complete name                  : [J.X&WiKi]Closest.Love.to.Heaven.2017.1080p.BluRay.x264.10bit.DTS.mkv
  4. Format                         : Matroska
  5. Format version                 : Version 4 / Version 2
  6. File size                      : 3.64 GiB
  7. Duration                       : 1 h 49 min
  8. Overall bit rate               : 4 747 kb/s
  9. Encoded date                   : UTC 2017-08-30 01:03:59
  10. Writing application            : mkvmerge v15.0.0 ("Duel with the Devil") 64-bit
  11. Writing library                : libebml v1.3.5 + libmatroska v1.4.5
  12. Attachments                    : 方正粗雅宋_GBK.TTF

  13. Video
  14. ID                             : 1
  15. Format                         : AVC
  16. Format/Info                    : Advanced Video Codec
  17. Format profile                 : High [email protected]
  18. Format settings, CABAC         : Yes
  19. Format settings, RefFrames     : 4 frames
  20. Codec ID                       : V_MPEG4/ISO/AVC
  21. Duration                       : 1 h 49 min
  22. Bit rate                       : 3 222 kb/s
  23. Width                          : 1 920 pixels
  24. Height                         : 1 036 pixels
  25. Display aspect ratio           : 1.85:1
  26. Frame rate mode                : Constant
  27. Frame rate                     : 23.976 FPS
  28. Color space                    : YUV
  29. Chroma subsampling             : 4:2:0
  30. Bit depth                      : 10 bits
  31. Scan type                      : Progressive
  32. Bits/(Pixel*Frame)             : 0.068
  33. Stream size                    : 2.47 GiB (68%)
  34. Writing library                : x264 core 124 r2197+666+27 2b69816 tMod [[email protected]:2:0 X86_64]
  35. Encoding settings              : cabac=1 / ref=4 / deblock=1:0:0 / analyse=0x3:0x133 / me=umh / subme=10 / psy=1 / fade_compensate=0.00 / psy_rd=1.00:0.00 / mixed_ref=1 / me_range=24 / chroma_me=1 / trellis=2 / 8x8dct=1 / cqm=0 / deadzone=21,11 / fast_pskip=1 / chroma_qp_offset=-2 / threads=18 / sliced_threads=0 / nr=0 / decimate=1 / interlaced=0 / bluray_compat=0 / constrained_intra=0 / fgo=0 / bframes=8 / b_pyramid=2 / b_adapt=2 / b_bias=0 / direct=3 / weightb=1 / open_gop=0 / weightp=2 / keyint=250 / keyint_min=23 / scenecut=40 / intra_refresh=0 / rc_lookahead=60 / rc=crf / mbtree=1 / crf=20.0000 / qcomp=0.60 / qpmin=0 / qpmax=81 / qpstep=4 / ip_ratio=1.40 / aq=1:1.00
  36. Language                       : Japanese
  37. Default                        : Yes
  38. Forced                         : No

  39. Audio
  40. ID                             : 2
  41. Format                         : DTS
  42. Format/Info                    : Digital Theater Systems
  43. Mode                           : 16
  44. Format settings, Endianness    : Big
  45. Codec ID                       : A_DTS
  46. Duration                       : 1 h 49 min
  47. Bit rate mode                  : Constant
  48. Bit rate                       : 1 509 kb/s
  49. Channel(s)                     : 6 channels
  50. Channel positions              : Front: L C R, Side: L R, LFE
  51. Sampling rate                  : 48.0 kHz
  52. Frame rate                     : 93.750 FPS (512 SPF)
  53. Bit depth                      : 24 bits
  54. Compression mode               : Lossy
  55. Stream size                    : 1.16 GiB (32%)
  56. Language                       : Japanese
  57. Default                        : Yes
  58. Forced                         : No

  59. Text #1
  60. ID                             : 3
  61. Format                         : ASS
  62. Codec ID                       : S_TEXT/ASS
  63. Codec ID/Info                  : Advanced Sub Station Alpha
  64. Duration                       : 1 h 49 min
  65. Bit rate                       : 58 b/s
  66. Count of elements              : 1226
  67. Compression mode               : Lossless
  68. Stream size                    : 47.1 KiB (0%)
  69. Title                          : Simplified
  70. Language                       : Chinese
  71. Default                        : Yes
  72. Forced                         : No

  73. Text #2
  74. ID                             : 4
  75. Format                         : ASS
  76. Codec ID                       : S_TEXT/ASS
  77. Codec ID/Info                  : Advanced Sub Station Alpha
  78. Duration                       : 1 h 49 min
  79. Bit rate                       : 58 b/s
  80. Count of elements              : 1225
  81. Compression mode               : Lossless
  82. Stream size                    : 47.1 KiB (0%)
  83. Title                          : Traditional
  84. Language                       : Chinese
  85. Default                        : No
  86. Forced                         : No
複製代碼



  1. General
  2. Unique ID                      : 183999918359014292374669602351702704751 (0x8A6D1862843C866D993930D2AA99826F)
  3. Complete name                  : Closest.Love.to.Heaven.2017.720p.BluRay.x264-WiKi.mkv
  4. Format                         : Matroska
  5. Format version                 : Version 4 / Version 2
  6. File size                      : 4.00 GiB
  7. Duration                       : 1 h 49 min
  8. Overall bit rate               : 5 224 kb/s
  9. Movie name                     : Jubowo @ WiKi
  10. Encoded date                   : UTC 2017-08-30 01:34:55
  11. Writing application            : mkvmerge v15.0.0 ("Duel with the Devil") 64-bit
  12. Writing library                : libebml v1.3.5 + libmatroska v1.4.5
  13. Attachments                    : 方正粗雅宋_GBK.TTF

  14. Video
  15. ID                             : 1
  16. Format                         : AVC
  17. Format/Info                    : Advanced Video Codec
  18. Format profile                 : [email protected]
  19. Format settings, CABAC         : Yes
  20. Format settings, RefFrames     : 9 frames
  21. Codec ID                       : V_MPEG4/ISO/AVC
  22. Duration                       : 1 h 49 min
  23. Bit rate                       : 4 568 kb/s
  24. Width                          : 1 280 pixels
  25. Height                         : 690 pixels
  26. Display aspect ratio           : 1.85:1
  27. Frame rate mode                : Constant
  28. Frame rate                     : 23.976 (24000/1001) FPS
  29. Color space                    : YUV
  30. Chroma subsampling             : 4:2:0
  31. Bit depth                      : 8 bits
  32. Scan type                      : Progressive
  33. Bits/(Pixel*Frame)             : 0.216
  34. Stream size                    : 3.50 GiB (87%)
  35. Writing library                : x264 core 129 r2245+704+36 8e61944 tMod+MixAQ [[email protected]:2:0 X86_64]
  36. Encoding settings              : cabac=1 / ref=9 / deblock=1:-3:-3 / analyse=0x3:0x133 / me=umh / subme=11 / psy=1 / fade_compensate=0.00 / psy_rd=1.05:0.10 / mixed_ref=1 / me_range=32 / chroma_me=1 / trellis=2 / 8x8dct=1 / cqm=0 / deadzone=21,11 / fast_pskip=0 / chroma_qp_offset=-3 / threads=18 / lookahead_threads=3 / sliced_threads=0 / nr=0 / decimate=0 / interlaced=0 / bluray_compat=0 / constrained_intra=0 / fgo=0 / bframes=10 / b_pyramid=2 / b_adapt=2 / b_bias=0 / direct=3 / weightb=1 / open_gop=0 / weightp=2 / keyint=250 / keyint_min=23 / scenecut=40 / intra_refresh=0 / rc=2pass / mbtree=0 / bitrate=4568 / ratetol=1.0 / qcomp=0.70 / qpmin=0 / qpmax=69 / qpstep=4 / cplxblur=20.0 / qblur=0.5 / ip_ratio=1.40 / pb_ratio=1.30 / aq=1 / aq-strength=0.90 / aq-sensitivity=10.00 / aq-ifactor=1.00 / aq-pfactor=1.00 / aq-bfactor=1.00 / aq2=0
  37. Language                       : Japanese
  38. Default                        : Yes
  39. Forced                         : No

  40. Audio
  41. ID                             : 2
  42. Format                         : AC-3
  43. Format/Info                    : Audio Coding 3
  44. Format settings, Endianness    : Big
  45. Codec ID                       : A_AC3
  46. Duration                       : 1 h 49 min
  47. Bit rate mode                  : Constant
  48. Bit rate                       : 640 kb/s
  49. Channel(s)                     : 6 channels
  50. Channel positions              : Front: L C R, Side: L R, LFE
  51. Sampling rate                  : 48.0 kHz
  52. Frame rate                     : 31.250 FPS (1536 SPF)
  53. Bit depth                      : 16 bits
  54. Compression mode               : Lossy
  55. Stream size                    : 502 MiB (12%)
  56. Language                       : Japanese
  57. Service kind                   : Complete Main
  58. Default                        : Yes
  59. Forced                         : No

  60. Text #1
  61. ID                             : 3
  62. Format                         : ASS
  63. Codec ID                       : S_TEXT/ASS
  64. Codec ID/Info                  : Advanced Sub Station Alpha
  65. Duration                       : 1 h 49 min
  66. Bit rate                       : 58 b/s
  67. Count of elements              : 1226
  68. Compression mode               : Lossless
  69. Stream size                    : 47.1 KiB (0%)
  70. Title                          : Simplified
  71. Language                       : Chinese
  72. Default                        : Yes
  73. Forced                         : No

  74. Text #2
  75. ID                             : 4
  76. Format                         : ASS
  77. Codec ID                       : S_TEXT/ASS
  78. Codec ID/Info                  : Advanced Sub Station Alpha
  79. Duration                       : 1 h 49 min
  80. Bit rate                       : 58 b/s
  81. Count of elements              : 1225
  82. Compression mode               : Lossless
  83. Stream size                    : 47.1 KiB (0%)
  84. Title                          : Traditional
  85. Language                       : Chinese
  86. Default                        : No
  87. Forced                         : No

  88. Menu
  89. 00:00:00.000                   : en:00:00:00.000
  90. 00:11:26.102                   : en:00:11:26.102
  91. 00:25:51.007                   : en:00:25:51.007
  92. 00:36:28.269                   : en:00:36:28.269
  93. 00:47:22.422                   : en:00:47:22.422
  94. 00:55:01.965                   : en:00:55:01.965
  95. 01:05:55.993                   : en:01:05:55.993
  96. 01:17:15.339                   : en:01:17:15.339
  97. 01:30:24.419                   : en:01:30:24.419
  98. 01:40:26.270                   : en:01:40:26.270
複製代碼



  1. General
  2. Unique ID                      : 216340301971585742636002717448745683282 (0xA2C1A0672F7B467F985CC696985E8952)
  3. Complete name                  : Closest.Love.to.Heaven.2017.1080p.BluRay.x264.DTS-WiKi.mkv
  4. Format                         : Matroska
  5. Format version                 : Version 4 / Version 2
  6. File size                      : 9.75 GiB
  7. Duration                       : 1 h 49 min
  8. Overall bit rate               : 12.7 Mb/s
  9. Movie name                     : Jubowo @ WiKi
  10. Encoded date                   : UTC 2017-08-30 01:22:39
  11. Writing application            : mkvmerge v15.0.0 ("Duel with the Devil") 64-bit
  12. Writing library                : libebml v1.3.5 + libmatroska v1.4.5
  13. Attachments                    : 方正粗雅宋_GBK.TTF

  14. Video
  15. ID                             : 1
  16. Format                         : AVC
  17. Format/Info                    : Advanced Video Codec
  18. Format profile                 : [email protected]
  19. Format settings, CABAC         : Yes
  20. Format settings, RefFrames     : 4 frames
  21. Codec ID                       : V_MPEG4/ISO/AVC
  22. Duration                       : 1 h 49 min
  23. Bit rate                       : 11.2 Mb/s
  24. Width                          : 1 920 pixels
  25. Height                         : 1 036 pixels
  26. Display aspect ratio           : 1.85:1
  27. Frame rate mode                : Constant
  28. Frame rate                     : 23.976 (24000/1001) FPS
  29. Color space                    : YUV
  30. Chroma subsampling             : 4:2:0
  31. Bit depth                      : 8 bits
  32. Scan type                      : Progressive
  33. Bits/(Pixel*Frame)             : 0.235
  34. Stream size                    : 8.58 GiB (88%)
  35. Writing library                : x264 core 129 r2245+704+36 8e61944 tMod+MixAQ [[email protected]:2:0 X86_64]
  36. Encoding settings              : cabac=1 / ref=4 / deblock=1:-3:-3 / analyse=0x3:0x133 / me=umh / subme=11 / psy=1 / fade_compensate=0.00 / psy_rd=1.05:0.10 / mixed_ref=1 / me_range=64 / chroma_me=1 / trellis=2 / 8x8dct=1 / cqm=0 / deadzone=21,11 / fast_pskip=0 / chroma_qp_offset=-3 / threads=18 / lookahead_threads=3 / sliced_threads=0 / nr=0 / decimate=0 / interlaced=0 / bluray_compat=0 / constrained_intra=0 / fgo=0 / bframes=10 / b_pyramid=2 / b_adapt=2 / b_bias=0 / direct=3 / weightb=1 / open_gop=0 / weightp=2 / keyint=250 / keyint_min=23 / scenecut=40 / intra_refresh=0 / rc=2pass / mbtree=0 / bitrate=11198 / ratetol=1.0 / qcomp=0.70 / qpmin=0 / qpmax=69 / qpstep=4 / cplxblur=20.0 / qblur=0.5 / ip_ratio=1.40 / pb_ratio=1.30 / aq=1 / aq-strength=0.90 / aq-sensitivity=10.00 / aq-ifactor=1.00 / aq-pfactor=1.00 / aq-bfactor=1.00 / aq2=0
  37. Language                       : Japanese
  38. Default                        : Yes
  39. Forced                         : No

  40. Audio
  41. ID                             : 2
  42. Format                         : DTS
  43. Format/Info                    : Digital Theater Systems
  44. Mode                           : 16
  45. Format settings, Endianness    : Big
  46. Codec ID                       : A_DTS
  47. Duration                       : 1 h 49 min
  48. Bit rate mode                  : Constant
  49. Bit rate                       : 1 509 kb/s
  50. Channel(s)                     : 6 channels
  51. Channel positions              : Front: L C R, Side: L R, LFE
  52. Sampling rate                  : 48.0 kHz
  53. Frame rate                     : 93.750 FPS (512 SPF)
  54. Bit depth                      : 24 bits
  55. Compression mode               : Lossy
  56. Stream size                    : 1.16 GiB (12%)
  57. Language                       : Japanese
  58. Default                        : Yes
  59. Forced                         : No

  60. Text #1
  61. ID                             : 3
  62. Format                         : ASS
  63. Codec ID                       : S_TEXT/ASS
  64. Codec ID/Info                  : Advanced Sub Station Alpha
  65. Duration                       : 1 h 49 min
  66. Bit rate                       : 58 b/s
  67. Count of elements              : 1226
  68. Compression mode               : Lossless
  69. Stream size                    : 47.1 KiB (0%)
  70. Title                          : Simplified
  71. Language                       : Chinese
  72. Default                        : Yes
  73. Forced                         : No

  74. Text #2
  75. ID                             : 4
  76. Format                         : ASS
  77. Codec ID                       : S_TEXT/ASS
  78. Codec ID/Info                  : Advanced Sub Station Alpha
  79. Duration                       : 1 h 49 min
  80. Bit rate                       : 58 b/s
  81. Count of elements              : 1225
  82. Compression mode               : Lossless
  83. Stream size                    : 47.1 KiB (0%)
  84. Title                          : Traditional
  85. Language                       : Chinese
  86. Default                        : No
  87. Forced                         : No

  88. Menu
  89. 00:00:00.000                   : en:00:00:00.000
  90. 00:11:26.102                   : en:00:11:26.102
  91. 00:25:51.007                   : en:00:25:51.007
  92. 00:36:28.269                   : en:00:36:28.269
  93. 00:47:22.422                   : en:00:47:22.422
  94. 00:55:01.965                   : en:00:55:01.965
  95. 01:05:55.993                   : en:01:05:55.993
  96. 01:17:15.339                   : en:01:17:15.339
  97. 01:30:24.419                   : en:01:30:24.419
  98. 01:40:26.270                   : en:01:40:26.270
複製代碼




您好!您暫時不能瀏覽帖子的全部內容,請 登錄 | 沒有帳號? 註冊

評分

參與人數 2碎鑽 +2 幫助 +2 收起 理由
瘋狂小惡梨 + 1 + 1 非常讃
clarating + 1 + 1 非常讃

查看全部評分

用Android 就來Android 台灣中文網(https://apk.tw)
回覆 支持 反對

使用道具 舉報

您需要登錄後才可以回帖 登錄 | 註冊

本版積分規則